module inscription newsletter haut de page forum mobile

Soucis d'import audio AAC

Discussion dans 'Vegas et Movie Studio' créé par Nico Darko, 21 Mai 2020.

  1. Nico Darko

    Points Repaire:
    550
    Recos reçues:
    0
    Messages:
    18
    Appréciations:
    +0 / 0 / -0
    Bonjour,
    J'ai plusieurs fichiers AAC qui se lisent parfaitement en dehors de Vegas Pro (16.0) mais quand je les importe dans Vegas pour travailler ils sont tout saccadés, sautant de plusieurs secondes en avant.
    Quelqu'un sait d'où peut venir le problème et comment le résoudre ?

    J'ai par ailleurs converti certains de ces fichiers en mp3 et là ça marche nickel, mais je préférerais utiliser les AAC originaux.

    Merci.
     
  2. ogt

    ogtx
    Conseiller Technique So

    Points Repaire:
    17 700
    Recos reçues:
    545
    Messages:
    23 532
    Appréciations:
    +711 / 1 390 / -40
    1- il existe plusieurs variantes des fichiers AAC
    Advanced Audio Coding — Wikipédia
    Il serait intéressant d'avoir des précisions (données par l'utilitaire MediaInfo)
    2 - Quelle est la configuration de votre machine ?
    - modèle exact du CPU
    - modèle exact de la carte graphique
    - taille mémoire
    - disques et SSD utilisés pendant le montage

    Soit la variante du codec AAC est mal prise ne compte par Vegas, soit la configuration de la machine est trop faible pour un traitement fluide.

    Olivier
     
  3. Nico Darko

    Points Repaire:
    550
    Recos reçues:
    0
    Messages:
    18
    Appréciations:
    +0 / 0 / -0
    Alors ce n'est pas la machine qui est trop faible, je monte des vidéos beaucoup plus lourdes sans soucis avec Vegas sur ce pc.

    Voici pour les détails d'un fichier :

    Audio
    Format : AAC
    Format/Info : Advanced Audio Codec
    Format version : Version 4
    Format profile : HE-AAC / LC
    Bit rate mode : Variable
    Channel(s) : 2 channels
    Channel positions : Front: L R
    Sampling rate : 48.0 kHz / 24.0 kHz
    Frame rate : 23.438 FPS (1024 SPF)
    Compression mode : Lossy
    Stream size : 31.2 MiB (100%)

    Je précise qu'il est extrait d'un fichier mkv (sans conversion). Je l'ai extrait avec mkvcleaver ou avec ffmpeg, et ça bug dans Vegas dans les 2 cas.

    Le mediainfo dans le fichier mkv ressemble à ça, bizarrement pas identique :

    Audio
    ID : 2
    Format : AAC
    Format/Info : Advanced Audio Codec
    Format profile : HE-AAC / LC
    Codec ID : A_AAC
    Duration : 44 min 53 s
    Bit rate : 96.0 kb/s
    Channel(s) : 2 channels
    Channel positions : Front: L R
    Sampling rate : 48.0 kHz / 24.0 kHz
    Frame rate : 23.438 FPS (1024 SPF)
    Compression mode : Lossy
    Stream size : 30.8 MiB (7%)
    Title : English
    Language : English
    Default : Yes
    Forced : No
     
  4. ogt

    ogtx
    Conseiller Technique So

    Points Repaire:
    17 700
    Recos reçues:
    545
    Messages:
    23 532
    Appréciations:
    +711 / 1 390 / -40
    Je ne suis pas certain que ce format du codec AAC soit traité correctement par Vegas.
    Il faudrait mêttre un extrait à disposition (par ex sur Wetransfer)

    Olivier
     
  5. Nico Darko

    Points Repaire:
    550
    Recos reçues:
    0
    Messages:
    18
    Appréciations:
    +0 / 0 / -0
    Ah tu as raison, en cherchant un peu il semble que le format HE pose problème sous Vegas. Bon je pense que je vais les convertir en AAC LC tout court du coup.
    Merci.
     
Chargement...
Discussions similaires - Soucis d'import audio
  1. Samsam31300
    Réponses:
    17
    Nb. vues:
    195
  2. teuch67
    Réponses:
    1
    Nb. vues:
    136
  3. Vidéofrancis
    Réponses:
    0
    Nb. vues:
    192
  4. Dozergo
    Réponses:
    4
    Nb. vues:
    512
  5. bigbernie
    Réponses:
    2
    Nb. vues:
    244

Partager cette page

Vous souhaitez annoncer sur le Repaire ? Contactez-nous