module inscription newsletter haut de page forum mobile

Rejeter la notice
Formation Raw C200 Tourner en Raw avec une C200
Notre formation vidéo est disponible !
>> Toutes les infos <<

[Problème] Passez la 1ère CS5 et tounez à gauche...

Discussion dans 'Adobe Premiere Pro' créé par widder, 5 Décembre 2010.

  1. widder

    Points Repaire:
    1 000
    Recos reçues:
    0
    Messages:
    68
    Appréciations:
    +0 / 0 / -0
    Bien le bonjour à la communauté!

    Qui peux nous dire comment faire pour que première CS5 accepte ce format vidéo:
    AVI Format H.264. (Format vidéo AVC)
    AVC ou H264 c'est bien du MPEG4?

    En important ce fichier la timeline de CS5 n'accepte que l'audio.
    En attendant de précieux conseil, Bon dimanche à tous.

    Voilà un exemple de vidéo que CS5 rebute:


    General
    Complete name : C:\Users\Philipps\Desktop\EGAM descente du bus.AVI
    Format : AVI
    Format/Info : Audio Video Interleave
    File size : 32.3 MiB
    Duration : 57s 508ms
    Overall bit rate : 4 714 Kbps
    Recorded date : 2018-11-05
    ICRT : 10:41:32

    Video
    ID : 0
    Format : AVC
    Format/Info : Advanced Video Codec
    Format profile : Main@L3.0
    Format settings, CABAC : Yes
    Format settings, ReFrames : 4 frames
    Format settings, GOP : M=3, N=15
    Codec ID : H264
    Duration : 57s 508ms
    Bit rate mode : Variable
    Bit rate : 4 315 Kbps
    Maximum bit rate : 9 901 Kbps
    Width : 848 pixels
    Height : 480 pixels
    Display aspect ratio : 16:9
    Frame rate : 59.940 fps
    Color space : YUV
    Chroma subsampling : 4:2:0
    Bit depth : 8 bits
    Scan type : Progressive
    Bits/(Pixel*Frame) : 0.177
    Stream size : 29.6 MiB (92%)

    Audio
    ID : 1
    Format : ADPCM
    Codec ID : 11
    Codec ID/Hint : Intel
    Duration : 57s 488ms
    Bit rate mode : Constant
    Bit rate : 384 Kbps
    Channel(s) : 2 channels
    Sampling rate : 48.0 KHz
    Bit depth : 4 bits
    Stream size : 2.64 MiB (8%)
    Interleave, duration : 43 ms (2.55 video frames)
     
  2. widder

    Points Repaire:
    1 000
    Recos reçues:
    0
    Messages:
    68
    Appréciations:
    +0 / 0 / -0
    Rubrique des vidéo écrasées...

    Hallo! toc toc y'a quelqu'un à la porte?
     
  3. ogt

    ogtx
    Conseiller Technique So

    Points Repaire:
    17 700
    Recos reçues:
    530
    Messages:
    23 038
    Appréciations:
    +660 / 1 295 / -39
    Le format de votre vidéo est plutot exotique !

    Si Première est une version gratuite de Démo, c'est normal de ne pas avoir les codecs AVCHD et Mpeg (Adobe doit verser des royalties à Mainconcept)
    Si c'est une version officielle enregistrée, il faut essayer de créer une nouvelle séquence avec l'onglet Général (et non pas les préconfigurations) et remplir les champs avec les paramètres correspondants à votre vidéo, par ex image jointe.

    Olivier
     

    Fichiers attachés:

    • Je recommande ! Je recommande ! x 1
  4. revla75

    Points Repaire:
    1 880
    Recos reçues:
    31
    Messages:
    1 137
    Appréciations:
    +0 / 8 / -0
    Si ton fichier est en .avi, tu peux essayer de le renommer .mp4.
    Le h.264 est en .mp4 normalement.
    D'où provient ce fichier ?
     
    • Je recommande ! Je recommande ! x 1
  5. widder

    Points Repaire:
    1 000
    Recos reçues:
    0
    Messages:
    68
    Appréciations:
    +0 / 0 / -0
    Bonjour,

    Ma réponse tardive! D'où vient ce fichier...
    De ma caméra tout simplement.
    La solution serait donc d'installer les codec:AVCHD et Mpeg...

    Donc où les trouver? Et surtout comment les installer?

    Merci et bonne fin de dimanche.
     
  6. louloux

    Points Repaire:
    3 930
    Recos reçues:
    31
    Messages:
    1 206
    Appréciations:
    +1 / 13 / -0
    Bonjour widder.

    Si tu possèdes la version complète de Premiere, tu disposes du codec h264 (le profil main doit passer en théorie).

    Donc dans ce cas, as-tu créé une séquence comme l'a indiqué Olivier avec les caractéristiques de ton métrage?
     
Chargement...

Dernières occasions

Dernières formations

 

Partager cette page

Dernières Occasions

Dernières Formations

 
Vous souhaitez annoncer sur le Repaire ? Contactez-nous