module inscription newsletter haut de page forum mobile

Rejeter la notice
Formation Raw C200 Tourner en Raw avec une C200
Notre formation vidéo est disponible !
>> Toutes les infos <<

Caméra d'appoint: Quelle format pour CS5?

Discussion dans 'Divers vidéo' créé par widder, 4 Décembre 2010.

  1. widder

    Points Repaire:
    1 000
    Recos reçues:
    0
    Messages:
    68
    Appréciations:
    +0 / 0 / -0
    Bonjour,:rolleyes:

    Avant toute chose, ma question porte sur ce que vous me conseillé à utiliser comme format vidéo pour bosser le montage sous première CS5.
    Le problème qui se pose actuellement c'est que CS5 ne reconnait pas les vidéo de cette caméra et ne prend que le son...
    Pour vous donner une idée plus exacte je vous poste en bas la fiche technique d'une vidéo sortie de cette appareil et dont première CS5 ne prend que le son.
    ( Oui! Je sais je me répète car je n'ai toujours pas d'image!)

    Merci de vos conseils et bonne journée à tous.:jap:


    Caméra: Praktica DVC 10.4 HDMI
    et dont voici la fiche technique:
    Résolution vidéo

    1920x1080(30fps), 1280x720(30fps), 1280x720(60fps), 848x480(30fps), 848x480(60fps), WQVGA(240fps) 1920x1080 (30fps), 1280x720 (30fps), 1280x720 (60fps), 848x480 (30fps), 848x480 (60fps), QVGA (240 fps)

    NTSC / PAL / HDMI NTSC / PAL / HDMI

    Full HD Auflösung (1920x1080), SDHC Support, 10,0 Mega Pixel, 12x optischem Zoom, HDMI - Ausgang, AVI Format H.264, 128MB interner Speicher, Touchscreen, Bildstabilisierung, High speed Video (240fps) Une résolution Full HD (1920x1080), support SDHC, 10,0 méga pixels, zoom optique 12x, HDMI - Sortie, AVI, H.264, 128 Mo de mémoire interne, écran tactile, la stabilisation d'image, vidéo à haute vitesse (240fps)

    Dateiformat Format de fichier

    JPEG, AVI Format H.264 JPEG, format H.264 AVI


    Fiche technique d'une vidéo sortie de cette caméra:

    General
    Complete name : D:\EGAM video photos\EGAM Paris Novembre 2010 vidéo photo archive\EGAM Vidéo classées\1 Bernard Kouschner Ministre des affaires étrangère.AVI
    Format : AVI
    Format/Info : Audio Video Interleave
    File size : 354 MiB
    Duration : 19mn 26s
    Overall bit rate : 2 543 Kbps
    Recorded date : 2018-11-05
    Writing library : AMBA
    ICRT : 13:49:37

    Video
    ID : 0
    Format : AVC
    Format/Info : Advanced Video Codec
    Format profile : Main@L3.0
    Format settings, CABAC : Yes
    Format settings, ReFrames : 4 frames
    Format settings, GOP : M=3, N=15
    Codec ID : H264
    Duration : 19mn 26s
    Bit rate mode : Variable
    Bit rate : 2 145 Kbps
    Maximum bit rate : 9 901 Kbps
    Width : 848 pixels
    Height : 480 pixels
    Display aspect ratio : 16:9
    Frame rate : 59.940 fps
    Color space : YUV
    Chroma subsampling : 4:2:0
    Bit depth : 8 bits
    Scan type : Progressive
    Bits/(Pixel*Frame) : 0.088
    Stream size : 298 MiB (84%)

    Audio
    ID : 1
    Format : ADPCM
    Codec ID : 11
    Codec ID/Hint : Intel
    Duration : 19mn 26s
    Bit rate mode : Constant
    Bit rate : 384 Kbps
    Channel(s) : 2 channels
    Sampling rate : 48.0 KHz
    Bit depth : 4 bits
    Stream size : 53.6 MiB (15%)
    Interleave, duration : 43 ms (2.55 video frames)
     
Chargement...

Partager cette page