Nous suivre

pinnacle studio 22, video 360 ° + mp4

Discussion dans 'Pinnacle Studio 16 et versions ultérieures' créé par bizertano57, 1 Janvier 2019.

  1. bizertano57

    Points Repaire:
    100
    Recos reçues:
    0
    Messages:
    4
    Appréciations:
    +0 / 0 / -0
    Bonjour,
    j'ai un soucie pour importer mes vidéos filmer avec mon téléphone Samsung s9+ ou ma cameras Samsung gear 360. j'ai essayer avec la version 15-18-21-22 c'est la même chose.

    Configuration pc

    Intel Core i7 4770K Cadencé à 3.50 GHz-carte mère MSI Z87-G45 GAMING-16 Go de mémoire DDR3-NVIDIA GeForce GTX 550 Ti 1GO GDR5-disque dur 2 TO+SSD 256 GO


    détails des vidéos filmer avec mon tel:


    Complete name : D:\saint nicolas 2018\20181202_173616.mp4
    Format : MPEG-4
    Format profile : Base Media / Version 2
    Codec ID : mp42 (isom/mp42)
    File size : 554 MiB
    Duration : 1 min 50 s
    Overall bit rate : 42.2 Mb/s
    Encoded date : UTC 2018-12-02 16:38:07
    Tagged date : UTC 2018-12-02 16:38:07
    xyz : +49.1210+006.1730/
    com.android.version : 8.0.0

    Video
    ID : 1
    Format : HEVC
    Format/Info : High Efficiency Video Coding
    Format profile : Main@L5.1@Main
    Codec ID : hvc1
    Codec ID/Info : High Efficiency Video Coding
    Duration : 1 min 50 s
    Source duration : 1 min 50 s
    Bit rate : 42.0 Mb/s
    Width : 3 840 pixels
    Height : 2 160 pixels
    Display aspect ratio : 16:9
    Rotation : 90°
    Frame rate mode : Variable
    Frame rate : 60.000 FPS
    Minimum frame rate : 29.970 FPS
    Maximum frame rate : 70.258 FPS
    Color space : YUV
    Chroma subsampling : 4:2:0
    Bit depth : 8 bits
    Bits/(Pixel*Frame) : 0.084
    Stream size : 551 MiB (99%)
    Source stream size : 551 MiB (99%)
    Title : VideoHandle
    Language : English
    Encoded date : UTC 2018-12-02 16:38:07
    Tagged date : UTC 2018-12-02 16:38:07
    Color range : Limited
    Color primaries : BT.2020
    Transfer characteristics : BT.601
    Matrix coefficients : BT.2020 non-constant
    mdhd_Duration : 110023
    Codec configuration box : hvcC

    Audio
    ID : 2
    Format : AAC LC
    Format/Info : Advanced Audio Codec Low Complexity
    Codec ID : mp4a-40-2
    Duration : 1 min 50 s
    Bit rate mode : Constant
    Bit rate : 256 kb/s
    Channel(s) : 2 channels
    Channel layout : L R
    Sampling rate : 48.0 kHz
    Frame rate : 46.875 FPS (1024 SPF)
    Compression mode : Lossy
    Stream size : 3.36 MiB (1%)
    Title : SoundHandle
    Language : English


    détails des vidéos filmer avec ma camera 360


    Complete name : D:\360 degres\360_0003.MP4
    Format : MPEG-4
    Format profile : Base Media / Version 2
    Codec ID : mp42 (qt /isom/hvc1)
    File size : 46.0 MiB
    Duration : 12 s 853 ms
    Overall bit rate mode : Variable
    Overall bit rate : 30.0 Mb/s
    Encoded date : UTC 2017-05-06 19:12:08
    Tagged date : UTC 2017-05-06 19:12:08
    xyz : +49.1269+006.2406/

    Video
    ID : 1
    Format : HEVC
    Format/Info : High Efficiency Video Coding
    Format profile : Main@L5.1@Main
    Codec ID : hvc1
    Codec ID/Info : High Efficiency Video Coding
    Duration : 12 s 833 ms
    Bit rate : 29.8 Mb/s
    Width : 4 096 pixels
    Height : 2 048 pixels
    Display aspect ratio : 2.000
    Frame rate mode : Constant
    Frame rate : 24.000 FPS
    Color space : YUV
    Chroma subsampling : 4:2:0
    Bit depth : 8 bits
    Bits/(Pixel*Frame) : 0.148
    Stream size : 45.7 MiB (99%)
    Language : English
    Encoded date : UTC 2017-05-06 19:12:08
    Tagged date : UTC 2017-05-06 19:12:08
    Color range : Limited
    Color primaries : BT.709
    Transfer characteristics : BT.709
    Matrix coefficients : BT.601
    Codec configuration box : hvcC

    Audio
    ID : 2
    Format : AAC LC
    Format/Info : Advanced Audio Codec Low Complexity
    Codec ID : mp4a-40-2
    Duration : 12 s 853 ms
    Source duration : 12 s 821 ms
    Bit rate mode : Variable
    Channel(s) : 2 channels
    Channel layout : L R
    Sampling rate : 48.0 kHz
    Frame rate : 46.875 FPS (1024 SPF)
    Compression mode : Lossy
    Source stream size : 297 KiB (1%)
    Language : English
    Encoded date : UTC 2017-05-06 19:12:08
    Tagged date : UTC 2017-05-06 19:12:08
    mdhd_Duration : 12853
     
  2. ggfx

    Modérateur So

    Points Repaire:
    11 680
    Recos reçues:
    109
    Messages:
    11 055
    Appréciations:
    +22 / 106 / -4
    bonjour bizertano57 et bonne année 2019

    :hello:

    malgré une présentation complète du contexte où apparaît ton problème. Tu ne dis pas comment tu réalises ton importation, ni comment le problème se manifeste.
    Est-ce un problème au moment du transfère , ou au moment où PS22 lit le fichier vidéo ?
     
  3. bizertano57

    Points Repaire:
    100
    Recos reçues:
    0
    Messages:
    4
    Appréciations:
    +0 / 0 / -0
  4. ggfx

    Modérateur So

    Points Repaire:
    11 680
    Recos reçues:
    109
    Messages:
    11 055
    Appréciations:
    +22 / 106 / -4
    peux-tu partager un lien de téléchargement d'un fichier de 1 ou 2 mn de film tourné avec ta caméra 360
     
Chargement...

Partager cette page

Dernières Occasions

Dernières Formations

 
Vous souhaitez annoncer sur le Repaire ? Contactez-nous