Sony NX80 2017

rushes natifs NX80 profil standard

Publié par Michel, le 6 Novembre 2017
  1. Michel
    nx80-01-42.JPG nx80-02-48.JPG
    2 petits rushes natifs tournés avec la Sony NX80 (prototype)
    Profil standard 709 "ex-cine1"
    les fichiers vidéo sont accompagné d'un fichier xml avec les quelques (maigres) métadonnées disponibles, notamment le Profil utilisateur utilisé.

    débit 100 Mb/s 25 i/s UHD 3840*2160
    codec XAVC-S

    Description d'un des rushes :
    General
    Complete name : L:\M4ROOT\CLIP\C0042.MP4
    Format : XAVC
    Codec ID : XAVC
    File size : 204 MiB
    Duration : 16s 800ms
    Overall bit rate mode : Variable
    Overall bit rate : 102 Mbps
    Encoded date : UTC 2017-09-30 16:53:34
    Tagged date : UTC 2017-09-30 16:53:34
    Video #1
    ID : 1
    Format : AVC
    Format/Info : Advanced Video Codec
    Format profile : High@L5.1
    Format settings, CABAC : Yes
    Format settings, ReFrames : 2 frames
    Codec ID : avc1
    Codec ID/Info : Advanced Video Coding
    Duration : 16s 800ms
    Bit rate mode : Variable
    Bit rate : 98.7 Mbps
    Maximum bit rate : 100.0 Mbps
    Width : 3 840 pixels
    Height : 2 160 pixels
    Display aspect ratio : 16:9
    Frame rate mode : Constant
    Frame rate : 25.000 fps
    Color space : YUV
    Chroma subsampling : 4:2:0
    Bit depth : 8 bits
    Scan type : Progressive
    Bits/(Pixel*Frame) : 0.476
    Stream size : 198 MiB (97%)
    Encoded date : UTC 2017-09-30 16:53:34
    Tagged date : UTC 2017-09-30 16:53:34
    Color primaries : BT.709
    Transfer characteristics : BT.709
    Matrix coefficients : BT.709
    Audio #2
    ID : 2
    Format : PCM
    Format settings, Endianness : Big
    Format settings, Sign : Signed
    Codec ID : twos
    Duration : 16s 800ms
    Bit rate mode : Constant
    Bit rate : 1 536 Kbps
    Channel(s) : 2 channels
    Sampling rate : 48.0 KHz
    Bit depth : 16 bits
    Delay relative to video : 40ms
    Stream size : 3.08 MiB (2%)
    Encoded date : UTC 2017-09-30 16:53:34
    Tagged date : UTC 2017-09-30 16:53:34

Partager cette page